#TITLE:患部で止まってすぐ溶ける　～ 狂気の優曇華院;
#SUBTITLE:東方月燈籠;
#ARTIST:IOSYS;
#TITLETRANSLIT:Kanbu de tomatte sugu tokeru (Crazy Udonge-in);
#SUBTITLETRANSLIT:Toho Tsukitourou;
#ARTISTTRANSLIT:;
#CREDIT:;
#BANNER:udonge-banner.png;
#BACKGROUND:udonge-bg.png;
#LYRICSPATH:udonge.lrc;
#CDTITLE:cdtitle.png;
#MUSIC:udonge.ogg;
#OFFSET:-0.400;
#SAMPLESTART:19.600;
#SAMPLELENGTH:15.000;
#SELECTABLE:YES;
#BPMS:0.000=200.000;
#STOPS:;
#BGCHANGES:-1.400=udonge.avi=1.000=0=0=0,
99999=-nosongbg-=1.000=0=0=0 // don't automatically add -songbackground-
;
// cache tags:
#FIRSTBEAT:0.000;
#LASTBEAT:436.000;
#SONGFILENAME:Songs/nhac/ _/udonge.sm;
#HASMUSIC:1;
#HASBANNER:1;
#MUSICLENGTH:131.435;
// end cache tags

//---------------dance-single - Tats Inter-Novice----------------
#NOTES:
     dance-single:
     Tats Inter-Novice:
     Easy:
     6:
     0.452,0.686,0.403,0.304,0.000,323.000,53.000,40.000,0.000,0.000:
1000
0000
0001
0000
,
1000
0000
0001
0000
,
0100
0000
0010
0000
,
0100
0000
0010
0000
,
1000
0000
0010
0000
,
0100
0000
0001
0000
,
0001
0000
1000
0000
,
0100
0000
0010
0001
,
0101
0000
0010
0000
,
0100
0000
1000
0000
,
0001
0000
0100
0000
,
0010
0000
1000
0000
,
1002
0000
0010
0000
,
0100
0000
1003
0000
,
1100
1000
0110
0100
,
0011
0010
1001
0001
,
1000
0100
0010
0100
,
1000
0100
0010
0100
,
1000
0100
0010
0001
,
1001
0000
1001
0000
,
0001
0010
0100
0010
,
0001
0010
0100
0010
,
0001
0010
0100
1000
,
1001
0000
1001
0000
,
0001
0100
0010
1000
,
0001
0100
0010
1000
,
0001
0001
0010
0010
,
1100
0000
1001
0000
,
0011
1001
1100
1001
,
0101
1001
1010
1001
,
0002
0023
0230
2300
,
3100
0010
1001
0000
,
0011
0100
1000
0100
,
1000
0100
1001
0000
,
1100
0010
0001
0010
,
0001
0010
1001
0000
,
1020
0130
0002
0000
,
0023
0000
0000
0230
0000
0000
1300
0000
,
0201
0310
2000
0000
,
3200
0000
0000
0320
0000
0000
0031
0000
,
1000
0100
0001
0100
,
1000
0100
0001
0100
,
1000
0010
0001
0010
,
1000
0010
0001
0010
,
1000
0100
0010
0001
,
1000
0010
0100
0001
,
1000
0100
0010
0001
,
1000
0010
0100
1001
,
0002
2000
3003
1001
,
2000
0002
3003
1001
,
0002
2000
3003
1001
,
2000
0002
3003
1001
,
0001
1000
0001
1000
,
1100
1010
0110
0101
,
2002
0000
0000
0000
,
0000
3003
0000
0000
0000
0000
0000
0000
0010
0000
0000
0000
0100
0000
0000
0000
,
2002
0000
0000
0000
,
3003
0000
0000
0000
,
1001
0000
0000
0000
,
0000
0000
0100
0010
,
0101
0202
0303
0000
,
1001
2010
3100
1100
,
1000
0100
0010
0001
,
1000
0010
0100
0001
,
0001
0010
0100
0010
,
0001
0010
0100
0010
,
0001
0010
0100
1000
,
0001
0100
0010
1000
,
1000
0100
0010
0100
,
1000
0100
0010
0100
,
1000
0100
0010
0001
,
1000
0010
0100
0001
,
2001
3010
0100
0001
,
1000
0010
0100
0001
,
1000
0100
0010
0001
,
1000
0010
0200
0301
,
1000
0001
1000
0002
,
0103
0010
0100
0020
,
1030
0100
0010
0002
,
1003
0010
0100
0001
,
0012
0103
1000
0100
,
0001
0100
1000
0100
,
0001
0010
1000
0010
,
0001
0010
1000
0020
,
0031
0010
0100
1000
,
1002
0103
0010
1000
,
2100
3001
0010
0100
,
2001
0000
0000
0000
,
3001
0000
1000
0000
,
0001
0000
0100
0000
,
0010
0000
0100
0000
,
0010
0000
1000
0000
,
0010
0000
0100
0000
,
0001
0000
0001
0000
,
1000
0000
0100
0000
,
0010
1000
0101
0010
,
1001
0000
0001
0000
,
1000
0000
0010
0000
,
0100
0000
0010
0000
,
0100
0000
0001
0000
,
0100
0000
0010
0000
,
1000
0000
1000
0000
,
0001
0000
0010
0000
,
0100
0001
1010
0100
,
2002
0000
0000
0000
,
0000
0000
0000
0000
,
3003
0000
0000
0000
;

//---------------dance-single - YS CRAZY----------------
#NOTES:
     dance-single:
     YS CRAZY:
     Edit:
     13:
     1.000,1.000,1.000,0.411,1.000,1054.000,440.000,54.000,0.000,3.000:
1000
0000
1000
1100
0110
1001
0010
1100
,
0000
0100
0110
0000
0011
1100
0000
0000
,
0010
0000
0011
0000
1100
0011
1001
0110
,
0000
0000
1010
0000
0110
0000
1001
0000
1000
0100
1000
0100
1000
0100
0000
0000
,
1100
0000
0001
1001
1100
0110
0000
0010
,
1100
1010
0101
0000
1001
1001
0000
0000
,
0011
0000
0001
1010
1100
0110
0011
1001
,
0000
1000
1001
0100
0011
0110
1001
0000
,
1000
1000
0100
0100
0010
0010
0001
0001
,
1001
0110
1001
0110
0011
1100
0101
1010
,
0100
0100
0001
0001
1000
1000
0010
0010
,
0110
0101
0110
1010
1100
0011
1001
0110
,
1001
0100
0010
0001
0010
0100
1000
0100
1000
0100
0010
0100
0010
0100
0010
0001
,
0010
0100
0010
0001
0010
0100
1000
0100
0010
0001
0010
0100
0010
0100
1000
0100
,
1010
0101
1010
0011
,
1100
0001
1000
0001
1000
0001
1000
0001
1000
0010
0100
0010
0100
0010
0100
0010
,
1100
1001
0011
1001
1010
1001
0101
1001
,
0110
0101
0110
1010
1100
0110
0011
0110
,
1100
0010
0001
0010
1100
0010
0001
0010
1100
0010
0001
0010
1100
0010
0001
0010
,
1100
0011
1100
0011
1100
0000
0000
0000
0101
1010
0101
1010
0101
0000
0000
0000
,
0011
0101
0110
1010
1100
0101
1001
1010
,
0110
1100
1001
0011
0110
1100
0110
0011
,
1001
0010
1100
0010
1001
0100
0011
0100
1001
0010
1001
0100
1010
0001
0110
0001
,
1000
0001
0010
0100
1000
0000
0000
0000
1000
0001
0010
0100
1000
0000
0000
0000
,
1100
0100
0110
0010
0011
0001
1001
1000
,
1100
0100
0110
0010
0011
0001
0011
0010
,
0110
1000
0100
0010
0001
0010
0100
1000
0101
0010
0001
0010
0101
1000
0100
0010
,
0001
0010
0100
1000
0110
0000
0000
0000
0100
0000
0010
0000
0000
0000
0000
0000
,
0001
0011
0010
0110
0100
1100
1000
1100
,
0100
0110
0010
0011
0001
0011
0010
0110
,
0100
0010
0100
0001
0010
1000
0010
0100
0001
0010
1000
0010
0100
0001
0000
1000
,
0010
0100
1000
0000
0010
0100
1000
0010
0100
0000
0020
0030
0000
0100
0000
0000
,
0011
0100
1000
0000
0011
0100
1000
0000
0101
1000
0010
0000
0101
1000
0010
0000
,
1001
0000
0110
0000
1001
0000
0110
0000
1100
0000
0000
0101
0000
0000
0110
0000
,
1001
0010
0100
0000
1001
0010
0100
0000
0101
1000
0100
0000
0101
1000
0100
0000
,
1010
0100
0010
0000
1010
0100
0010
0000
1000
0100
0010
0001
0010
0100
1000
0100
,
0010
0010
0100
0100
1000
0000
1100
0000
,
1002
0100
1000
0100
1000
0100
0023
0100
1000
0100
1000
0100
2030
0000
0100
0000
,
3200
0000
0001
0300
1100
0000
0011
0000
1100
0000
0010
0000
1001
0000
0000
0000
,
2002
3003
0010
0100
0010
0000
0220
0000
0330
0000
0001
1000
0001
1000
0001
0100
,
1001
1000
1001
1000
1001
0001
1001
0001
,
0101
0100
0101
0100
0110
0010
0110
0010
,
1010
0010
1010
0010
0110
0100
0110
0100
,
0101
0001
0101
0001
0011
0010
0011
0010
,
0110
0100
0110
0100
1100
1000
1100
1000
,
1001
0001
1001
0001
0101
0100
0101
0100
,
1010
0010
1010
0010
0110
1000
0110
0001
,
1010
0100
1010
0100
0011
1000
0011
1000
0110
0001
0110
0001
1100
0010
1100
0010
,
1001
0000
0000
0000
0000
1000
1000
0000
,
0001
0000
0001
0000
0000
0010
0010
0000
,
0100
0000
0100
0000
0000
1000
1000
0000
,
0010
0000
0010
0000
0000
0100
0100
0000
,
0001
1000
0001
1000
,
0010
0100
0010
0100
1000
0100
0010
0001
,
0010
0100
1000
0100
0010
0001
0010
0100
1000
0100
0010
0001
0010
0100
1000
0100
,
0020
0000
0000
0000
0000
0000
1030
0001
1000
0000
0110
0000
0110
0000
0110
0000
,
1002
1000
1000
1000
0023
1000
0130
1010
,
1001
0000
1010
0000
1100
0000
1010
0000
0200
0000
0010
0001
0010
0001
0010
0001
,
2310
0010
3110
0100
0102
0100
0113
0101
,
1001
0000
0101
0000
1001
0010
0101
0010
0100
0010
0100
0000
1010
0000
0101
0000
,
0110
0000
0000
0000
0102
0003
0002
0003
1002
0000
0003
0000
0012
0003
0002
0003
,
0110
0000
0000
0000
2010
3000
2000
3000
2001
0000
3000
0000
2100
0000
3000
0000
,
2010
3200
0320
0030
0102
0023
0230
0300
2001
3200
0320
0030
1002
0023
0230
0300
,
2001
3200
0320
0032
0023
0230
0320
0230
2300
3200
2300
3200
0320
0230
0320
0032
,
0013
1100
0101
0110
1010
1001
0011
0110
,
0101
0000
1100
0000
0101
0000
0011
0000
1010
0001
0110
0000
1001
0000
0110
0000
,
1100
0001
0110
0000
0011
0000
0110
0000
1100
0000
1001
0100
1010
0000
0101
0000
,
1100
0010
1001
0100
0011
0000
1010
0000
0101
0010
1100
0000
0110
0000
0011
0000
,
1100
0101
1100
0101
0011
1010
0011
1010
,
1001
0110
1001
0110
0110
1001
0110
1001
,
1001
0100
0011
1000
0101
0000
1100
0000
0110
0000
0011
0000
1010
0000
1100
0000
,
1001
0100
0001
0100
0001
0100
0001
0100
0001
1010
0100
1010
0100
1001
0010
1001
,
0110
0100
0110
0010
1010
1000
1010
0010
,
0011
0001
0011
0010
0110
0100
0110
0010
,
1010
0100
0010
0001
0110
0000
1001
0000
0011
0100
1000
0100
1001
0000
0101
0000
,
1010
0100
0010
0001
1010
0100
0010
1000
0101
1000
0010
0100
0001
0000
0110
0000
,
1100
0000
0110
0000
0011
0000
1000
0001
0110
0000
1100
0000
1001
0000
0011
0000
,
1100
0110
0101
0011
1010
1010
1010
1010
,
0101
1010
0101
1010
0110
1001
0110
1001
,
1100
0010
0101
1000
0110
1001
0010
1100
0011
1000
0101
0010
1001
0110
1001
0100
,
0011
0100
1000
0000
1100
0010
0001
0000
1001
0100
1000
0000
1001
0010
0001
0000
,
0110
1000
0001
0000
0110
0001
1000
0000
0101
1010
0101
1010
0101
1010
0101
1010
,
0101
0010
1000
0000
1010
0100
0001
0000
1001
0100
0010
0000
1001
0010
0100
0000
,
1100
0001
1000
0000
0011
1000
0001
0000
1100
0011
1100
0011
1100
0011
1100
0011
,
1000
0110
0001
0000
0001
0110
1000
0000
0100
1010
0001
0000
0010
0101
1000
0000
,
0101
1000
0110
0000
1010
0100
1001
0000
0011
0100
1000
0100
1001
0010
0100
0010
,
1100
0101
0110
1010
1001
0011
0110
0101
,
1010
0100
0011
1000
0110
0000
1001
0000
0011
0100
1010
0001
0110
0000
0000
0000
,
1000
1000
0100
0100
0011
1100
0010
0010
,
1001
0011
0100
0100
1010
1001
0010
0010
,
1000
0100
0010
0100
0010
0001
0010
0100
0011
0100
1010
0001
0010
0001
0010
0100
,
1000
0100
1000
0100
0010
0001
0010
0100
0010
0101
1010
0101
1010
0101
0000
0000
,
1001
0000
1100
0000
1001
0000
1010
0000
1100
0001
1010
0000
1001
0000
1010
0000
,
1100
0000
0101
0000
0110
0000
1100
0000
0101
1000
0011
0000
0110
0000
1100
0000
,
0001
0010
0001
0010
0001
0010
0001
0010
0100
1000
0100
1000
0100
1000
0100
0000
,
1001
0000
0000
0000
0110
0000
0000
0000
1001
0100
0010
0001
0010
0100
1000
0100
,
0011
1000
0100
0010
1001
0100
0010
0100
0011
1000
0001
0010
1100
0010
0001
0100
,
0011
0100
1000
0100
1001
0010
0100
0001
1010
0100
0010
0001
1100
0010
0100
0001
,
1100
0001
0010
0100
1001
0010
0100
1000
0101
0010
0100
0010
1100
0010
0001
1000
,
0110
0001
1000
0001
0110
1000
0100
0010
1001
0000
0110
0000
1001
0000
0000
0000
,
1000
0100
1000
0100
0010
0001
0010
0100
1000
0100
1000
0010
0100
0010
0100
0001
,
0010
0001
0010
1000
0100
1000
0100
0010
0001
0010
0100
0010
0100
1000
0100
0010
,
0001
0010
0001
0010
0100
1000
0100
1000
0100
0010
0100
0010
0001
0010
0001
0010
,
0100
1000
0100
0010
0001
0010
0100
1000
0100
0010
0001
0010
0100
1000
0100
0010
,
2002
0000
0000
0000
,
3003
0000
0000
0000
,
0000
0000
0000
0000
,
0000
0000
0000
0000
,
0000
0000
0000
0000
,
1001
0000
0000
0000
;

//---------------dance-single - Tats EXTREME----------------
#NOTES:
     dance-single:
     Tats EXTREME:
     Challenge:
     10:
     0.927,1.000,0.517,0.236,0.278,754.000,68.000,31.000,0.000,0.000:
1001
0000
0001
1000
0001
0010
0100
1000
,
0000
1000
0100
0010
0001
1000
0001
0000
,
0010
0000
0010
0100
1000
0001
0010
0100
,
0000
0000
0100
0000
0010
0000
0001
0000
1000
0100
1000
0100
1000
0000
0000
0000
,
1001
0000
1000
0001
1000
0100
0010
0001
,
0000
0001
0010
0100
1000
0001
1000
0000
,
0100
0000
0100
0010
0001
1000
0100
0010
,
0000
0000
0010
0000
0100
0000
1000
0000
0001
0100
0001
0100
0001
0000
0000
0000
,
0001
0100
0001
0100
0001
0010
0100
1000
,
1000
0010
1000
0010
1000
0100
0010
0001
,
0001
1000
0001
1000
0001
0100
0010
1000
,
1000
0001
1000
0001
1000
0010
0100
0001
,
1000
0100
1000
0100
1000
0000
0010
0000
1000
0010
1000
0010
1000
0000
0001
0000
,
0001
0010
0001
0010
0001
0000
0100
0000
0001
0100
0001
0100
0001
0000
1000
0000
,
1000
0100
0000
0000
0000
0000
0000
0000
0010
0001
0000
0000
0000
0000
0000
0000
1000
0010
0000
0000
0000
0000
0000
0000
0100
0001
0000
0000
0000
0000
0000
0001
,
0010
0000
0000
0000
0000
0000
0000
0000
0100
1000
0000
0000
0000
0000
0000
0000
2002
0000
0000
0000
0000
0000
0000
0000
3003
0000
0000
0000
0000
0000
0000
0000
,
0100
1000
0100
0010
0001
0010
0100
1000
,
1000
0010
0100
0001
0100
0010
1000
1000
,
0001
0010
0001
0000
0010
0100
0010
0000
0100
1000
0100
0000
1000
0100
1000
0000
,
0010
0001
0010
0001
0010
0000
0000
0000
0100
1000
0100
1000
0100
0000
0000
0000
,
0010
0001
0010
0100
1000
0100
0010
0001
,
0001
0100
0010
1000
0010
0100
0001
0001
,
1000
0100
1000
0000
0100
0010
0100
0000
0010
0001
0010
0000
0001
0010
0001
0000
,
1000
0100
1000
0100
1000
0000
0000
0000
0001
0010
0001
0010
0001
0000
0000
0000
,
0010
0001
0010
0100
1000
0100
0010
0001
,
0001
0100
0010
1000
0010
0100
0001
0001
,
1000
0100
1000
0000
0100
0010
0100
0000
0010
0001
0010
0000
0001
0010
0001
0000
,
0010
0100
0010
0100
0010
0000
0000
0000
0100
0010
0100
0010
0100
0000
0000
0000
,
1000
0010
1000
0001
0100
0001
1000
0010
,
0100
0001
1000
0100
1000
0001
1000
0010
,
0100
0001
0100
0000
0010
1000
0010
0000
0100
0001
0100
0000
0010
1000
0010
0000
,
1000
0100
1000
0000
0001
0010
0001
0000
2002
0000
0000
0000
3003
0000
0000
0000
,
0001
0010
0100
1000
0001
0010
0100
1000
,
0001
0010
0001
0000
1000
0100
1000
0000
0101
0000
0000
0110
0000
0000
1010
0000
,
1000
0100
0010
0001
1000
0100
0010
0001
,
1000
0100
1000
0000
0001
0010
0001
0000
0100
0001
0100
0000
0010
1000
0010
0000
,
2001
3100
0010
0001
0002
0000
0000
0000
,
0023
0000
0000
0230
0000
0000
1300
0000
,
2001
0000
3001
0010
0200
0000
1300
0000
,
2200
0000
3300
0220
0000
0330
0022
0033
,
1001
1100
1001
1100
,
1001
0011
1001
0011
,
1001
1010
1100
1010
,
0110
1001
0101
0011
,
1001
0011
1001
0011
,
1001
1100
1001
1100
,
1001
0101
0011
0101
,
0110
1001
1010
1100
,
0001
0000
1000
0000
0000
0001
1000
0000
,
0001
0000
1000
0000
0000
0001
1000
0000
,
0001
0000
1000
0000
0000
0001
1000
0000
,
0001
0000
1000
0000
0000
0001
1000
0000
,
0001
1000
0001
1000
,
0001
1000
0001
1000
0001
1000
0001
1000
,
0001
0010
0100
1000
0001
0010
0100
1000
0001
0010
0100
1000
0001
0010
0100
1000
,
0001
0000
0000
0000
0000
0000
0010
0100
1000
0000
0001
0000
0010
0000
0100
0000
,
2002
0000
0000
0000
,
3003
0000
0000
0000
,
1001
0000
0000
0000
,
0000
0000
0000
0000
0000
0000
0100
0010
0001
0000
1000
0000
0100
0000
0010
0000
,
0101
0202
0303
0000
,
1001
2010
3100
1100
,
1000
0100
1000
0000
1000
0010
1000
0000
0001
0010
0001
0000
0001
0100
0001
0000
,
1000
0100
0010
0001
2002
0000
0000
3003
,
0010
0001
0010
0100
1000
0100
0010
0001
,
0010
1000
0010
0001
0100
1000
0100
0001
,
0100
0010
1000
0010
0001
0010
0100
1000
,
0100
0001
0010
1000
0010
0001
0100
0000
,
0100
1000
0100
0010
0001
0010
0100
1000
,
0100
0001
0010
0100
0010
1000
0010
0001
,
0100
1000
0001
0010
1000
0100
0001
1000
,
0010
0001
0100
0001
0100
0010
1000
0100
,
0010
0001
0010
0100
1000
0100
0010
0001
,
0010
1000
0010
0001
0100
1000
0100
0001
,
0100
0010
1000
0010
0001
0010
0100
1000
,
0100
0001
0010
1000
0010
0001
1000
0000
,
1000
0010
1000
0010
0100
0001
0100
0001
,
1000
0100
0010
0001
0001
0010
0001
0100
,
1000
0100
0010
1000
0100
0010
0001
0100
,
0010
0001
0010
1000
0010
1000
0001
0000
,
0010
0001
0010
0100
1000
0100
0010
0001
,
0010
1000
0010
0001
0100
1000
0100
0001
,
0010
1000
0010
0100
1000
0010
0100
0001
,
0100
0010
1000
0010
0001
0010
1000
0000
,
0100
1000
0100
0010
0001
0010
0100
1000
,
0100
0001
0100
1000
0010
0001
0010
1000
,
0100
0001
0100
0010
0001
0100
0010
1000
,
0010
0100
0001
0100
1000
0100
0001
0000
,
1100
0000
1001
0000
0012
1003
0010
1000
,
0001
0100
0001
0010
0100
1000
0100
0001
,
0100
0010
0100
1000
0010
0001
0010
0100
,
0010
0001
0010
1000
0100
0010
0001
0000
,
0011
0000
1001
0000
2100
3001
0100
0001
,
1000
0010
1000
0100
0010
0001
0010
1000
,
0010
0100
0010
0001
0100
1000
0100
0010
,
0100
1000
0100
0001
0010
0100
1000
0000
,
0101
0000
0011
0000
2010
3100
1000
0001
,
0010
1000
0010
0001
0010
0100
0010
0001
,
0100
0010
0100
1000
0100
0010
0100
0001
,
1000
0000
0100
0000
0010
0000
0001
0000
1000
0010
1000
0010
1000
0000
0100
0000
,
1010
0000
0110
0000
0102
0013
0001
1000
,
0100
0001
0100
1000
0100
0010
0100
1000
,
0010
0100
0010
0001
0010
0100
0010
1000
,
0001
0000
0010
0000
0100
0000
1000
0000
0001
0100
0001
0100
0001
0000
0010
0000
,
2002
0000
0000
0000
,
0000
0000
0000
0000
,
3003
0000
0000
0000
,
1001
0000
0000
2002
0000
0000
0000
3003
,
0000
1001
0000
0000
;

//---------------dance-single - Tats HARDeR----------------
#NOTES:
     dance-single:
     Tats HARDeR:
     Hard:
     9:
     0.814,0.952,0.380,0.373,0.038,650.000,50.000,49.000,0.000,0.000:
1000
0000
1000
0001
1000
0100
0010
0001
,
0000
0001
0010
0100
1000
0001
1000
0000
,
0100
0000
0100
0010
0001
1000
0100
0010
,
0000
0000
0010
0000
0100
0000
1000
0000
0001
0010
0001
0010
0001
0000
0000
0000
,
1001
0000
0001
1000
0001
0010
0100
1000
,
0000
1000
0100
0010
0001
1000
0001
0000
,
0010
0000
0010
0100
1000
0001
0010
0100
,
0000
0000
0100
0000
0010
0000
0001
0000
1000
0010
1000
0010
1000
0000
0000
0000
,
1000
0010
1000
0010
1000
0100
0010
0001
,
0001
0100
0001
0100
0001
0010
0100
1000
,
1000
0001
1000
0001
1000
0010
0100
0001
,
0001
1000
0001
1000
0001
0100
0010
1000
,
2002
0000
0000
0000
,
0000
0000
3003
0000
,
1100
1000
0110
0100
,
0011
0000
0010
0000
1001
0000
0001
0001
,
1000
0100
0010
0001
1000
0100
0010
0001
,
1000
0010
0100
0001
1000
0010
0100
0001
,
1000
0010
1000
0010
0100
0001
0100
0001
,
0110
0000
1001
0000
,
0001
0010
0100
1000
0001
0010
0100
1000
,
0001
0100
0010
1000
0001
0100
0010
1000
,
0022
0033
0202
0303
2020
3030
2200
3300
,
0110
0000
0000
0000
1001
0000
0001
0001
,
0001
0010
0100
1000
0001
0010
0100
1000
,
0001
0100
0010
1000
0001
0100
0010
1000
,
0001
0001
0010
0010
1100
0000
1100
0000
,
1001
0000
1001
0000
,
0001
0100
0010
1000
0001
0010
0100
1000
,
0010
0100
0001
1000
0100
0010
0001
0010
,
0001
0100
0010
1000
0100
0001
1000
0010
,
0001
0100
0010
1000
1002
0000
0000
0000
,
1003
0100
0010
0001
0100
0010
1000
0010
,
0100
0000
0001
0000
0100
0000
0010
0000
1001
0000
0000
1001
0000
0000
0101
0000
,
0001
0010
0100
1000
0010
0100
0001
0100
,
0010
1000
0010
0100
1001
0000
1100
0000
,
0001
1000
0001
0100
0002
0000
0000
0000
,
2003
0000
0000
3200
0000
0000
0320
0000
,
0032
0000
1003
0100
0020
0000
0031
0000
,
0012
0000
0000
0023
0000
0000
0130
0000
,
1000
0010
1000
0010
1000
0010
1000
0010
,
1000
0001
1000
0001
1000
0001
1000
0001
,
0100
0001
0100
0001
0100
0001
0100
0001
,
1000
0100
1000
0100
1000
0100
1000
0100
,
0010
0100
0010
0100
0010
0100
0010
0100
,
0001
0100
0001
0100
0001
0100
0001
0100
,
1000
0010
0001
0010
0001
0010
0001
0010
,
0100
1000
0100
0010
1000
0100
0010
0001
,
0001
0000
1000
0000
0000
0001
1000
0000
,
0001
0000
1000
0000
0000
0001
1000
0000
,
0001
0000
1000
0000
0000
0001
1000
0000
,
0001
0000
1000
0000
0000
0001
1000
0000
,
0001
1000
0001
1000
,
0001
1000
0001
1000
0001
1000
0001
1000
,
2002
0000
0000
0000
,
0000
3003
0000
0000
0000
0000
0010
0001
0010
0000
0100
0000
1000
0000
0100
0000
,
2002
0000
0000
0000
,
3003
0000
0000
0000
,
1001
0000
0000
0000
,
0000
0000
0000
0000
0000
0000
0100
1000
0100
0000
0010
0000
0001
0000
0010
0000
,
0101
0202
0303
0000
,
1001
2010
3100
1100
,
1000
0010
0100
0001
0010
0100
0001
0100
,
1000
0010
0100
0001
1000
0100
0010
0001
,
0001
0100
0010
1000
0001
0100
0010
1000
,
0001
0010
0100
1000
0001
0010
0100
1000
,
0001
0100
1000
0100
0010
1000
0100
0010
,
0001
0100
0010
0001
0020
0000
1030
0000
,
1000
0010
0100
0001
1000
0010
0100
0001
,
1000
0100
0010
0001
1000
0100
0010
0001
,
1000
0010
0001
0010
0100
0001
0010
0100
,
1000
0010
0100
1000
0200
0000
0301
0000
,
1000
0010
1000
0010
0100
0001
0100
0001
,
1000
0100
0010
0001
1000
0100
0010
0001
,
0010
0001
0100
0001
1000
0100
0001
1000
,
0010
0001
1000
0010
2000
0000
3100
0000
,
0100
1000
0010
1000
0001
0010
1000
0001
,
0100
1000
0001
0100
0002
0000
0013
0000
,
1000
0010
0100
0001
0020
0000
0230
0000
,
2300
0100
0010
3001
,
1001
0000
0101
0000
1000
0100
0010
0001
,
0100
0001
0010
0100
2000
0000
3100
0000
,
1000
0010
0100
0001
0010
0100
1000
0200
,
0000
0310
0100
1000
0011
0000
1100
0000
,
1001
0000
1010
0000
1000
0010
0100
0001
,
0010
0000
0000
0000
0001
0000
0000
0000
0100
0000
0000
0000
0010
0000
0000
0000
2000
0000
0000
0000
0000
0000
0000
0000
3100
0000
0000
0000
0000
1000
0000
0000
,
0000
0010
0100
0010
1000
0100
0010
0001
,
0100
0010
1000
0100
0012
0000
0000
0000
,
1003
0000
1010
0000
1000
0100
0010
0100
,
1000
0010
0100
0001
0020
0000
0031
0000
,
0001
0010
0100
0010
0001
0100
0010
1000
,
0100
0010
0001
0100
0002
0000
1003
0000
,
1100
0000
1001
0000
0001
0010
0001
0100
,
0010
0000
0000
0000
1000
0000
0000
0000
0100
0000
0000
0000
0010
0000
0000
0000
0002
0000
0000
0000
0000
0000
0000
0000
0013
0000
0000
0000
0000
0001
0000
0000
,
0000
0100
0010
0100
0001
0010
0100
1000
,
0010
0100
0001
0100
2000
0000
3100
0000
,
1001
0000
0012
0000
0103
0010
0001
0010
,
0100
0000
0000
0000
0001
0000
0000
0000
1000
0000
0000
0000
0100
0000
0000
0000
0020
0000
0000
0000
0000
0000
0000
0000
0031
0000
0000
0000
0000
0010
0000
0000
,
0000
0100
0010
0001
0010
0100
1000
0100
,
0001
0100
1000
0100
2000
0000
3001
0000
,
1100
0000
0012
0000
0103
1000
0100
0010
,
1000
0010
0100
0001
0100
0010
0100
0001
,
1000
0100
0010
0001
1000
0010
0100
0001
,
1000
0100
1000
0100
0010
0001
0010
0100
,
2002
0000
0000
0000
,
0000
0000
0000
0000
,
3003
0000
0000
0000
,
1001
0000
0000
2002
0000
0000
0000
0000
,
0000
0000
0000
3003
;

//---------------dance-single - YS Intermediate----------------
#NOTES:
     dance-single:
     YS Intermediate:
     Medium:
     7:
     0.638,0.741,0.571,0.198,0.000,486.000,75.000,26.000,0.000,0.000:
0001
0100
1000
0000
,
1000
0001
0010
0100
,
1000
0100
0001
0000
,
0010
0001
1000
1000
,
1000
0100
0001
0000
,
0010
1000
0010
0001
,
0001
0100
1000
0000
,
0100
0010
0010
0000
,
0011
1000
0010
1000
,
0100
0010
0100
1000
,
0010
0100
0001
0010
,
0100
1000
0100
0010
,
1002
0010
0010
0010
,
0010
0010
0013
1000
,
0101
0101
1010
1010
,
0110
0110
1001
1001
,
0100
0000
0100
0000
0010
0001
0010
0001
,
1000
0000
1000
0000
0010
0100
0010
0100
,
0001
0000
0001
0000
1000
0010
1000
0010
,
1100
0000
0101
0000
,
1001
0001
0110
0010
,
1100
1000
0011
0001
,
1000
0100
1000
0100
0010
0100
0010
0100
,
1001
0000
1001
0000
,
0100
0000
0100
0000
0001
0010
0100
0010
,
0001
0010
0100
0010
0001
0000
1000
0000
,
0001
0000
0001
0000
0010
0100
0010
0100
,
1000
0000
1000
0000
0001
1000
0001
0000
,
0011
1100
1010
1001
,
0101
0011
0110
0110
,
0001
0010
0001
0010
0100
1000
0100
1000
,
0010
0010
1001
0000
,
1001
0000
0010
0000
0100
0001
0100
0000
,
1000
0100
0011
0000
,
1001
0000
0100
0000
0010
1000
0010
0000
,
0001
0010
1100
0000
,
1010
0000
0100
1000
0002
0000
1000
0000
,
2003
0000
0000
3002
0000
0000
0013
0000
,
2001
0000
3010
0100
0020
0000
0130
0000
,
1001
0000
0000
0110
0000
0000
2000
0000
,
3001
0010
0001
0000
0010
0100
0010
0000
,
0100
1000
0100
0000
0010
0001
0010
0000
,
0100
0010
0100
0000
1000
0010
1000
0000
,
0001
0100
0001
0000
0100
0001
0100
0000
,
1001
0000
1001
0000
0100
0001
0100
0001
,
0110
0000
0110
0000
1000
0010
1000
0010
,
1100
0000
1100
0000
0001
0100
0001
0100
,
0011
0000
0011
0000
1000
0001
1000
0001
,
0100
0000
0100
0000
0000
0001
1000
0000
,
0010
0000
0010
0000
0000
1000
0001
0000
,
1000
0000
1000
0000
0000
0010
0100
0000
,
0001
0000
0001
0000
0000
0100
0010
0000
,
1000
1000
0001
0001
,
1000
0100
1000
0010
0100
0001
0100
0010
,
2000
0000
0000
0000
,
3002
0003
0100
0001
,
1010
0000
1000
0000
,
1000
0100
0010
0000
,
1001
0000
0010
0000
,
0100
0001
1000
0000
,
0011
0202
0303
0010
,
1100
2010
3001
0100
,
1000
0100
0010
0000
0100
0010
0001
0000
,
1000
0000
0010
0000
0100
0010
0100
0010
,
1100
0000
0001
0000
0100
0010
1000
0000
,
1010
0000
0001
0000
0100
0010
1000
0000
,
0011
0000
1000
0000
0010
0100
0001
0000
,
0101
0000
1000
0000
0010
0100
0001
0000
,
1100
0000
0011
0000
1000
0001
1000
0000
,
0011
0000
1100
0000
0001
1000
0001
0000
,
1000
0100
0010
0001
1000
0000
1000
0000
,
0110
1001
0110
1001
,
2001
0000
3001
0000
0100
0000
0001
0100
,
1000
0000
1000
0100
0001
0000
0001
0000
,
1000
0010
0100
0000
0001
0100
0010
0000
,
1000
0100
0010
0001
1000
0100
1000
0000
,
1002
0000
1003
0000
0010
0000
1000
0010
,
0001
0000
0001
0010
1000
0000
1000
0000
,
0001
0010
0001
0010
0100
1000
0100
1000
,
0001
1000
1000
1000
,
0012
0000
0103
0000
1000
0000
0100
0010
,
0001
0000
1000
0100
0001
0000
0100
0010
,
0001
0000
0100
0000
0010
0100
0010
0000
,
0001
0000
0010
0100
1000
0100
0010
0000
,
0010
0000
0001
0010
0001
0000
1000
0000
,
1002
0000
0103
0010
0100
0000
1000
0000
,
0210
0000
0310
0000
0001
1000
0001
1000
,
0002
0000
0100
0100
,
0013
1000
0010
1000
,
0100
0010
0100
1000
,
0010
0100
0001
0010
,
0100
0000
1000
0000
0100
0010
0100
0000
,
1000
0010
0001
0100
,
0001
0100
1000
0100
,
0010
0000
0010
0000
0100
1000
0100
0000
,
0010
0100
0011
1100
,
1001
1001
0002
1000
,
1003
0100
0010
0100
1000
0000
1000
0000
,
0010
0100
0010
0100
0020
0000
1000
0000
,
1030
0100
1000
0100
2000
0000
0001
0000
,
3001
0101
0020
0100
,
0130
0001
0010
0100
0010
0000
0010
0000
,
1000
0010
0001
0000
0001
0010
1000
0000
,
0010
0101
1010
0100
,
2002
0000
0000
0000
,
0000
0000
0000
0000
,
3003
0000
0000
0000
,
1000
0000
0000
2002
0000
0000
0000
3003
,
0000
0001
0000
0000
;
